<?xml version="1.0" standalone="no"?>
<!DOCTYPE svg PUBLIC "-//W3C//DTD SVG 1.1//EN" "http://www.w3.org/Graphics/SVG/1.1/DTD/svg11.dtd" >
<svg xmlns="http://www.w3.org/2000/svg" xmlns:xlink="http://www.w3.org/1999/xlink" version="1.1">
<metadata></metadata>
<defs>
<font id="alegreya_sansbold" horiz-adv-x="604" >
<font-face units-per-em="2048" ascent="1638" descent="-410" />
<missing-glyph horiz-adv-x="309" />
<glyph unicode="&#xa8;I" d="M16 1628q0 63 36.5 100t99.5 37q60 0 92 -33.5t32 -93.5q0 -65 -36 -102t-99 -37q-60 0 -92.5 33.5t-32.5 95.5zM160 0l16 393l-16 926h282l-14 -901l12 -418h-280zM330 1628q0 63 36 100t99 37q60 0 92.5 -33.5t32.5 -93.5q0 -65 -36 -102t-99 -37q-60 0 -92.5 33.5 t-32.5 95.5z" />
<glyph unicode="&#xa8;O" horiz-adv-x="1316" d="M57 643q0 333 163 513.5t462 180.5q277 0 427.5 -169t150.5 -480q0 -339 -162.5 -523.5t-460.5 -184.5q-278 0 -429 173t-151 490zM346 680q0 -262 73 -373.5t240 -111.5q163 0 237.5 102.5t74.5 335.5q0 259 -73.5 369t-242.5 110q-163 0 -236 -101t-73 -331zM354 1628 q0 63 36 100t99 37q60 0 92.5 -33.5t32.5 -93.5q0 -65 -36 -102t-99 -37q-60 0 -92.5 33.5t-32.5 95.5zM711 1628q0 63 36 100t99 37q60 0 92.5 -33.5t32.5 -93.5q0 -65 -36 -102t-99 -37q-60 0 -92.5 33.5t-32.5 95.5z" />
<glyph unicode="&#xb4;Y" horiz-adv-x="1142" d="M8 1319h293l31 -92l223 -502h18l250 494l37 100h287l-461 -870l-4 -82l12 -367h-278l16 367l-2 73zM350 1589q245 124 426 232l25 -6l69 -162l-8 -25q-213 -82 -440 -160l-27 9z" />
<glyph unicode="&#xa8;i" horiz-adv-x="520" d="M-20 1262q0 63 36 100t99 37q60 0 92.5 -33.5t32.5 -93.5q0 -64 -36.5 -101.5t-99.5 -37.5q-60 0 -92 33.5t-32 95.5zM123 0l14 393l-12 541l272 22l-16 -536l14 -420h-272zM293 1262q0 63 36 100t99 37q60 0 92.5 -33.5t32.5 -93.5q0 -65 -36 -102t-99 -37 q-60 0 -92.5 33.5t-32.5 95.5z" />
<glyph unicode="&#xa8;o" horiz-adv-x="1011" d="M59 457q0 249 118 381.5t341 132.5q209 0 319.5 -122.5t110.5 -354.5q0 -249 -118 -381.5t-341 -132.5q-209 0 -319.5 123t-110.5 354zM203 1262q0 63 36 100t99 37q60 0 92.5 -33.5t32.5 -93.5q0 -65 -36 -102t-99 -37q-60 0 -92.5 33.5t-32.5 95.5zM315 510 q0 -188 46 -268t149 -80q97 0 140.5 64t43.5 212q0 186 -45 267t-147 81q-97 0 -142 -65.5t-45 -210.5zM559 1262q0 63 36 100t99 37q60 0 92.5 -33.5t32.5 -93.5q0 -65 -36 -102t-99 -37q-60 0 -92.5 33.5t-32.5 95.5z" />
<glyph unicode="&#xb4;y" horiz-adv-x="915" d="M-41 -227l10 28q127 22 217 69t162 130l-348 946l262 12l31 -151l168 -531h18l166 506l33 170h237l-309 -886q-68 -194 -181.5 -297.5t-322.5 -161.5l-20 2q-72 66 -123 164zM268 1169q232 184 371 314l27 -2l98 -148l-4 -26q-282 -174 -400 -242l-26 2z" />
<glyph unicode="&#xfb01;" horiz-adv-x="1222" d="M53 795l15 149h135v78q0 217 110 319.5t340 102.5q121 0 275 -37l-31 -211l-27 -14q-150 69 -247 69q-82 0 -120 -41.5t-40 -130.5l-2 -135h483l150 21l16 -11l-16 -534l14 -420h-270l14 393l-8 387h-385l-6 -360l14 -420h-272l16 395l-4 385h-144z" />
<glyph unicode="&#xfb02;" horiz-adv-x="1253" d="M53 795l13 149h137l-2 107q-1 197 113.5 300t328.5 103q128 0 260 -33l219 17l-16 -1018l14 -420h-272l14 395l-10 817q-126 50 -223 50q-165 0 -168 -170l-2 -148h233l8 -14l-14 -150h-229l-4 -362l14 -418h-272l14 393l-4 387h-144z" />
<glyph horiz-adv-x="0" />
<glyph horiz-adv-x="682" />
<glyph unicode=" "  horiz-adv-x="309" />
<glyph unicode="&#x09;" horiz-adv-x="309" />
<glyph unicode="&#xa0;" horiz-adv-x="309" />
<glyph unicode="!" horiz-adv-x="540" d="M104 127q0 68 40.5 108.5t109.5 40.5q64 0 99.5 -36.5t35.5 -102.5q0 -69 -39 -110t-106 -41t-103.5 36.5t-36.5 104.5zM156 1319l24 31l215 14l33 -33l-74 -846l-155 -20l-27 27z" />
<glyph unicode="&#x22;" horiz-adv-x="724" d="M113 1300l211 15l14 -19l-72 -450l-127 -19l-22 19zM420 1300l209 15l16 -19l-72 -450l-129 -19l-20 19z" />
<glyph unicode="#" horiz-adv-x="1124" d="M41 377l12 139h207l41 213h-176l-16 19l12 139h211l55 287h152l18 -21l-51 -266h207l55 287h152l18 -21l-51 -266h178l18 -19l-14 -139h-213l-41 -213h184l17 -18l-15 -140h-217l-57 -292h-158l-14 18l53 274h-205l-57 -292h-158l-12 18l53 274h-172zM434 516h205l43 213 h-207z" />
<glyph unicode="$" horiz-adv-x="921" d="M78 45l35 242l26 18q67 -62 151 -98.5t150 -36.5q57 0 93 29t36 71q0 28 -20 51.5t-52.5 39.5t-74.5 35t-85.5 36.5t-85.5 44t-74.5 58t-52.5 79t-20 105.5q0 119 81 206t223 113l16 283h156l24 -25l-16 -252q111 -9 211 -47l-39 -229l-37 -10q-131 98 -240 98 q-58 0 -90.5 -28t-32.5 -66q0 -31 25.5 -56.5t66.5 -44.5t90 -38.5t98.5 -45.5t90.5 -59t66.5 -84.5t25.5 -116.5q0 -116 -78 -207.5t-227 -117.5l-16 -271h-158l-22 23l16 242q-138 10 -260 59z" />
<glyph unicode="%" horiz-adv-x="1748" d="M63 946q0 186 86.5 285.5t249.5 99.5q147 0 225 -92t78 -266q0 -188 -85 -286.5t-246 -98.5q-149 0 -228.5 92.5t-79.5 265.5zM236 961q0 -107 35.5 -158t111.5 -51q77 0 113 48.5t36 149.5q0 104 -36.5 152.5t-114.5 48.5q-75 0 -110 -46t-35 -144zM297 -90l956 1495 l111 -68l16 -39l-954 -1486l-117 69zM1044 346q0 187 86.5 287t249.5 100q147 0 225 -93t78 -265q0 -188 -85 -287.5t-246 -99.5q-149 0 -228.5 92.5t-79.5 265.5zM1217 360q0 -105 35.5 -155.5t111.5 -50.5q77 0 113 48.5t36 147.5q0 104 -36.5 153.5t-114.5 49.5 q-75 0 -110 -46.5t-35 -146.5z" />
<glyph unicode="&#x26;" horiz-adv-x="1456" d="M86 352q0 224 233 338v15q-135 141 -135 294q0 155 112 243.5t318 88.5q182 0 334 -61l-61 -199h-35q-126 72 -246 72q-90 0 -137 -41t-47 -117q0 -50 25 -93t90 -99l430 -390q20 59 20 136q0 92 -35 170h-125l-12 16l19 174h591l17 -18l-19 -172h-276l-6 -19 q24 -95 24 -184q0 -132 -49 -236l268 -241v-17q-67 -73 -147 -121h-18l-234 211q-154 -120 -405 -120q-226 0 -360 99t-134 271zM319 397q0 -109 76.5 -168t210.5 -59q143 0 234 63l-406 367q-115 -79 -115 -203z" />
<glyph unicode="'" horiz-adv-x="419" d="M113 1300l211 15l14 -19l-72 -450l-127 -19l-22 19z" />
<glyph unicode="(" d="M143 518q2 313 80 510t252 326h23l98 -84v-23q-123 -110 -178.5 -282t-55.5 -445q0 -258 55 -422.5t179 -277.5v-23l-98 -82h-23q-174 127 -252 316.5t-80 486.5z" />
<glyph unicode=")" d="M8 -180q123 112 177.5 283.5t56.5 443.5q-2 260 -56.5 425t-177.5 275v23l96 84h25q173 -128 252 -318.5t80 -486.5q-1 -312 -80 -509t-252 -325h-25l-96 82v23z" />
<glyph unicode="*" horiz-adv-x="784" d="M55 1200q-3 70 21 160l20 6l209 -137l-12 -86l-21 -8zM94 909l2 19l189 168l77 -39l3 -23l-123 -196q-54 15 -148 71zM326 1493q79 27 159 27l9 -17l-60 -252l-86 -10l-14 14zM401 1040l62 58l22 -2l140 -189q-33 -49 -113 -114l-18 4zM457 1212l8 19l215 82 q44 -67 74 -146l-13 -12l-245 -20z" />
<glyph unicode="+" horiz-adv-x="983" d="M47 459l14 166h338v340l166 14l21 -21v-333h332l18 -19l-14 -166h-336v-338l-166 -12l-21 16v334h-333z" />
<glyph unicode="," horiz-adv-x="468" d="M47 -162q113 94 113 201q0 69 -66 123l2 22q95 58 197 86q92 -74 92 -176q0 -178 -248 -354l-88 78z" />
<glyph unicode="-" horiz-adv-x="622" d="M55 410v170l488 73l22 -22v-168l-487 -76z" />
<glyph unicode="." horiz-adv-x="468" d="M90 127q0 68 40.5 108.5t109.5 40.5q64 0 99.5 -36.5t35.5 -102.5q0 -69 -39.5 -110t-106.5 -41t-103 36.5t-36 104.5z" />
<glyph unicode="/" horiz-adv-x="581" d="M-2 -213l422 1606h184l23 -25l-424 -1604h-189z" />
<glyph unicode="0" horiz-adv-x="1067" d="M80 496q0 264 123.5 409.5t349.5 145.5q208 0 322 -135.5t114 -383.5q0 -262 -123.5 -406t-347.5 -144q-209 0 -323.5 134.5t-114.5 379.5zM291 514q0 -149 60 -221t184 -72q123 0 183 69.5t60 211.5q0 151 -61 224t-185 73q-123 0 -182 -69t-59 -216z" />
<glyph unicode="1" horiz-adv-x="737" d="M16 690v219l480 138l39 -29l-17 -592l14 -426h-276l12 397v340l-231 -61z" />
<glyph unicode="2" horiz-adv-x="964" d="M80 6v166l276 272q99 100 146 166.5t47 114.5q0 41 -30.5 65.5t-86.5 24.5q-65 0 -136.5 -32.5t-133.5 -88.5h-31l-45 211q211 142 410 142q141 0 231 -67t90 -183q0 -83 -54 -181.5t-175 -228.5l-154 -170l4 -8h277l184 16l16 -18l-32 -219l-248 12h-465l-76 -4z" />
<glyph unicode="3" horiz-adv-x="882" d="M47 930q177 121 371 121q159 0 257.5 -78t98.5 -203q0 -83 -47 -162.5t-147 -134.5v-10q223 -64 223 -273q0 -172 -142 -278.5t-372 -106.5q-102 0 -221 21l-15 211l19 18q119 -43 227 -43q114 0 179 45.5t65 126.5q0 68 -47.5 105.5t-139.5 40.5h-143l-14 18l8 187l90 4 q78 2 139.5 50t61.5 122q0 56 -37 86t-103 30q-106 0 -241 -96h-29z" />
<glyph unicode="4" horiz-adv-x="1030" d="M43 133v172l502 731h250l-7 -712h170l17 -25l-12 -190l-170 4l10 -277l-15 -18l-213 -15l-14 17l6 295h-327l-179 -6zM276 324h295v403h-18z" />
<glyph unicode="5" horiz-adv-x="884" d="M39 39l18 18q133 -47 244 -47q113 0 178.5 52t65.5 139q0 68 -47.5 108.5t-153.5 59.5l-197 34l-18 23l10 584l33 30l119 -4h299l213 11l16 -17l-28 -211l-21 -20l-186 20h-238l-6 -229l127 -27q179 -36 257.5 -115t78.5 -210q0 -195 -145.5 -316t-378.5 -121 q-101 0 -226 25z" />
<glyph unicode="6" horiz-adv-x="989" d="M68 440q0 249 156 452.5t440 328.5h14l186 -121v-27q-215 -81 -334.5 -168t-171.5 -205l17 -18q91 57 207 57q158 0 249 -101.5t91 -254.5q0 -82 -28 -154t-81 -128t-137.5 -88.5t-188.5 -32.5q-202 0 -310.5 121.5t-108.5 338.5zM315 444q0 -145 42 -215.5t143 -70.5 q84 0 130 49.5t46 142.5q0 97 -44 148t-130 51q-90 0 -187 -62v-43z" />
<glyph unicode="7" horiz-adv-x="884" d="M31 813l18 229l230 -6h452l100 4v-200l-337 -738l-115 -307l-219 62l-17 43l428 909h-338l-186 -18z" />
<glyph unicode="8" horiz-adv-x="1009" d="M84 291q0 106 59.5 176t165.5 117v12q-85 47 -135.5 114t-50.5 171q0 157 111 247.5t294 90.5q165 0 259 -80t94 -219q0 -91 -47.5 -158t-133.5 -123v-12q37 -18 65 -35t57.5 -43t48.5 -54.5t31.5 -68.5t12.5 -86q0 -166 -120 -262t-318 -96q-186 0 -289.5 85.5 t-103.5 223.5zM311 326q0 -73 50.5 -117.5t138.5 -44.5q90 0 140 44t50 111q0 37 -15.5 66.5t-50 53t-63 38t-80.5 35.5q-83 -30 -126.5 -71.5t-43.5 -114.5zM346 889q0 -35 14 -63.5t42 -50t56 -36.5t70 -32q67 36 103.5 77.5t36.5 104.5q0 66 -42 103.5t-116 37.5 q-77 0 -120.5 -38t-43.5 -103z" />
<glyph unicode="9" horiz-adv-x="989" d="M68 653q0 82 28 154t81 128.5t137 89t188 32.5q202 0 311 -122t109 -339q0 -249 -156 -452t-440 -328h-15l-186 121v26q215 81 334.5 168t171.5 205l-17 18q-91 -57 -206 -57q-158 0 -249 101.5t-91 254.5zM313 686q0 -97 44 -148t130 -51q90 0 187 62v43q0 145 -42 216 t-143 71q-84 0 -130 -50t-46 -143z" />
<glyph unicode=":" horiz-adv-x="468" d="M82 127q0 68 40 108.5t107 40.5q65 0 101.5 -36.5t36.5 -102.5q0 -69 -40 -110t-108 -41q-66 0 -101.5 36.5t-35.5 104.5zM82 666q0 68 40 108.5t107 40.5q65 0 101.5 -36.5t36.5 -102.5q0 -69 -40.5 -110.5t-107.5 -41.5q-66 0 -101.5 37t-35.5 105z" />
<glyph unicode=";" horiz-adv-x="468" d="M37 -162q115 95 115 201q0 66 -66 123v22q93 56 197 86q92 -74 92 -176q0 -178 -248 -354l-88 78zM82 666q0 68 40 108.5t107 40.5q65 0 101.5 -36.5t36.5 -102.5q0 -69 -40.5 -110.5t-107.5 -41.5q-66 0 -101.5 37t-35.5 105z" />
<glyph unicode="&#x3c;" horiz-adv-x="983" d="M70 422v221l18 25l764 297l59 -156l-12 -21l-637 -241v-15l639 -233l-39 -152l-24 -18z" />
<glyph unicode="=" horiz-adv-x="983" d="M47 266l14 166h857l18 -18l-14 -166h-856zM47 651l14 166h857l18 -18l-14 -166h-856z" />
<glyph unicode="&#x3e;" horiz-adv-x="983" d="M72 809l59 156l764 -297l18 -25v-221l-768 -293l-24 18l-39 152l639 233v15l-637 241z" />
<glyph unicode="?" horiz-adv-x="696" d="M96 1204l49 152l27 14q270 -15 415.5 -100t145.5 -232q0 -174 -186 -282l-148 -88l-4 -11l13 -174l-191 -24l-18 18l-21 246l10 20l185 95q114 60 114 157q0 81 -87.5 126t-284.5 57zM174 127q0 68 40.5 108.5t109.5 40.5q64 0 99.5 -36.5t35.5 -102.5q0 -69 -39.5 -110 t-106.5 -41t-103 36.5t-36 104.5z" />
<glyph unicode="@" horiz-adv-x="1728" d="M57 379q0 197 65.5 366.5t183 292t289 192.5t374.5 70q326 0 521.5 -178.5t195.5 -482.5t-201 -469.5t-572 -171.5l45 321h-24q-122 -208 -244 -333h-37q-111 42 -159 121.5t-48 205.5q0 99 29.5 197t86.5 186t150.5 155t211.5 95h12l158 -41l147 45l21 -12l-97 -709 l-2 -43q161 25 252.5 143t91.5 300q0 233 -155 369.5t-416 129.5q-207 -4 -366 -97t-244.5 -254t-85.5 -365q0 -215 97 -371t272 -236.5t409 -80.5l10 -27l-74 -127q-270 1 -471.5 95.5t-313.5 278t-112 435.5zM668 399q0 -174 53 -174q22 0 63.5 47.5t103 155.5t122.5 252 l4 31v8l-131 41q-101 0 -158 -100t-57 -261z" />
<glyph unicode="A" horiz-adv-x="1228" d="M16 0l447 1319h330l403 -1319h-283l-32 172l-35 123l-258 6l-228 -6l-34 -109l-35 -186h-275zM432 510l176 -4l178 4l-155 549h-19z" />
<glyph unicode="B" horiz-adv-x="1185" d="M160 0l14 393l-14 926l469 2q202 0 315 -84.5t113 -245.5q0 -107 -52 -186.5t-149 -120.5q135 -32 199.5 -108.5t64.5 -202.5q0 -383 -600 -383q-175 0 -360 10zM420 418l6 -221q79 -9 141 -9q130 0 200.5 51.5t70.5 147.5q0 145 -189 180l-227 -4zM426 762l192 -6 q78 21 116 68t38 130q0 91 -53.5 128.5t-186.5 37.5h-100z" />
<glyph unicode="C" horiz-adv-x="1058" d="M57 647q0 328 165 508t466 180q192 0 346 -80l-49 -231l-22 -10q-129 92 -287 92q-326 0 -326 -428q0 -231 85 -347t249 -116q162 0 303 88l25 -14l-23 -236q-154 -71 -327 -71q-294 0 -449.5 171.5t-155.5 493.5z" />
<glyph unicode="D" horiz-adv-x="1341" d="M160 0l14 393l-14 926l530 8q287 0 440.5 -159.5t153.5 -458.5q0 -350 -171.5 -536.5t-491.5 -186.5q-225 0 -461 14zM426 418l6 -203q143 -14 238 -14q325 0 325 444q0 241 -79 351t-246 110q-109 0 -232 -10z" />
<glyph unicode="E" horiz-adv-x="1042" d="M160 0l14 393l-14 926h835l17 -23l-21 -206l-315 10l-238 -2l-6 -318l227 -4l215 6l17 -20l-19 -207l-233 6l-211 -2l-2 -141l6 -199l232 -2l325 12l17 -22l-19 -207h-827z" />
<glyph unicode="F" horiz-adv-x="933" d="M160 0l14 393l-14 926h784l17 -23l-21 -209l-313 13l-189 -2l-6 -357l184 -2l224 6l18 -20l-20 -207l-244 6l-166 -2l-2 -104l12 -418h-278z" />
<glyph unicode="G" horiz-adv-x="1224" d="M57 631q0 342 179 523t509 181q215 0 388 -80l-60 -249l-26 -5q-101 58 -180 83.5t-169 25.5q-183 0 -266.5 -108t-83.5 -357q0 -243 80.5 -343.5t267.5 -100.5q81 0 174 28l4 113l-4 203l256 20l-6 -180l6 -322q-244 -81 -452 -81q-308 0 -462.5 167.5t-154.5 481.5z " />
<glyph unicode="H" horiz-adv-x="1425" d="M160 0l14 393l-14 926h282l-10 -543l283 -6l276 6l-10 543h285l-17 -901l13 -418h-281l16 393l-2 154l-299 4l-268 -6l-2 -127l12 -418h-278z" />
<glyph unicode="I" d="M160 0l14 393l-14 926h282l-16 -901l12 -418h-278z" />
<glyph unicode="J" horiz-adv-x="686" d="M12 1128l15 191h501l-14 -885l4 -186q0 -172 -89.5 -276.5t-313.5 -188.5l-84 147v25q128 66 179.5 130.5t51.5 166.5v156l-12 706l-217 -6z" />
<glyph unicode="K" horiz-adv-x="1196" d="M158 0l16 393l-16 926h282l-10 -612l369 485l75 127h302l-467 -623q240 -334 505 -639l-4 -30q-123 -31 -272 -47l-33 16q-289 390 -475 682l-4 -260l10 -418h-278z" />
<glyph unicode="L" horiz-adv-x="886" d="M152 0l14 393l-14 926h282l-16 -901l6 -189h442l17 -22l-19 -207h-712z" />
<glyph unicode="M" horiz-adv-x="1632" d="M90 0l133 1319h320l53 -195l209 -624h18l219 624l60 195h313l119 -1319h-246l-20 399l-47 508h-21l-295 -768h-215l-268 768h-19l-51 -481l-28 -426h-234z" />
<glyph unicode="N" horiz-adv-x="1423" d="M160 0l14 389l-12 930h299l536 -893h19l-8 881l258 16l-17 -915l11 -408h-299l-537 893h-18l-3 -438l11 -455h-254z" />
<glyph unicode="O" horiz-adv-x="1316" d="M57 643q0 333 163 513.5t462 180.5q278 0 429 -169t151 -480q0 -339 -163.5 -523.5t-461.5 -184.5q-278 0 -429 173t-151 490zM346 680q0 -262 73 -373.5t240 -111.5q164 0 238 102.5t74 335.5q0 259 -73.5 369t-240.5 110q-164 0 -237.5 -101.5t-73.5 -330.5z" />
<glyph unicode="P" horiz-adv-x="1132" d="M160 0l14 393l-14 926l506 2q206 0 318 -104.5t112 -298.5q0 -226 -146 -361t-393 -135h-131v-4l12 -418h-278zM430 633l188 -8q189 54 189 268q0 111 -56 164.5t-173 58.5l-140 -8z" />
<glyph unicode="Q" horiz-adv-x="1329" d="M57 643q0 333 163 513.5t462 180.5q279 0 429.5 -169t150.5 -484q0 -238 -86 -404t-246 -241q271 -165 567 -236l10 -28q-54 -109 -129 -178l-22 -9q-379 140 -674 392h-43q-279 0 -430.5 173t-151.5 490zM346 674q0 -257 74.5 -368t241.5 -111q160 0 234.5 104t74.5 338 q0 256 -74.5 365.5t-241.5 109.5q-163 0 -236 -102t-73 -336z" />
<glyph unicode="R" horiz-adv-x="1208" d="M160 0l14 393l-14 926l506 2q206 0 319 -101.5t113 -289.5q0 -127 -64.5 -232.5t-181.5 -173.5q155 -247 317 -458l-4 -31q-130 -46 -272 -55l-29 22q-141 244 -239 442h-199v-26l12 -418h-278zM430 659l203 -8q174 59 174 252q0 105 -56.5 156.5t-172.5 56.5l-140 -8z " />
<glyph unicode="S" horiz-adv-x="1019" d="M63 66l39 258l31 16q82 -71 179 -109t173 -38q90 0 140.5 44t50.5 105q0 45 -32 82t-83 65t-112.5 55.5t-123 61t-112.5 75t-83 105t-32 142.5q0 175 136 291t350 116q170 0 334 -67l-46 -240l-41 -16q-69 50 -144 78t-136 28q-82 0 -131 -43.5t-49 -101.5 q0 -43 32 -78.5t83 -63t112.5 -55.5t123.5 -62.5t113 -76.5t83 -105.5t32 -142.5q0 -173 -137 -290t-358 -117q-195 0 -392 84z" />
<glyph unicode="T" horiz-adv-x="1030" d="M31 1112l18 207h936l16 -23l-16 -206l-248 12h-82l-10 -684l12 -418h-278l14 393l-10 709h-82l-252 -12z" />
<glyph unicode="U" horiz-adv-x="1306" d="M125 1319h278l-14 -817q-1 -149 63.5 -221t198.5 -72q264 0 264 272v6l-14 832h283l-10 -670l-3 -174v-10q-1 -229 -137 -355q-140 -128 -399 -128q-249 0 -381 125q-126 120 -125 338v20l2 190z" />
<glyph unicode="V" horiz-adv-x="1202" d="M20 1319h283l33 -174l250 -887h18l287 872l35 189h274l-444 -1319h-332z" />
<glyph unicode="W" horiz-adv-x="1849" d="M39 1319h272l21 -162l233 -870h19l223 710l-94 322h282l31 -191l238 -841h18l266 852l33 180h258l-434 -1319h-291l-196 631h-19l-199 -631h-292z" />
<glyph unicode="X" horiz-adv-x="1249" d="M27 0l422 651l-418 668h334l61 -133l207 -322l213 332l57 123h293l-397 -629l426 -690h-334l-62 131l-219 342l-237 -356l-60 -117h-286z" />
<glyph unicode="Y" horiz-adv-x="1142" d="M8 1319h295l29 -92l223 -502h20l248 494l39 100h287l-463 -870l-4 -82l12 -367h-278l16 367l-4 77z" />
<glyph unicode="Z" horiz-adv-x="1120" d="M61 -8v198l662 916h-418l-223 -19l-12 15l20 219l828 -2l126 2v-203l-655 -907h442l224 18l10 -16l-23 -219l-297 6h-526z" />
<glyph unicode="[" d="M164 -238l14 773l-14 772l428 20l12 -14v-123l-219 -29v-1255l219 -27v-125l-12 -12z" />
<glyph unicode="\" horiz-adv-x="581" d="M-20 1368l22 25h182l424 -1606l-18 -23h-189z" />
<glyph unicode="]" d="M-2 -121l219 27v1257l-219 27v123l12 14l430 -20l-14 -772l14 -773l-430 -20l-12 14v123z" />
<glyph unicode="^" horiz-adv-x="903" d="M35 287l295 714l26 15h219l295 -717l-18 -23l-154 -36l-231 585h-14l-242 -585l-23 -11z" />
<glyph unicode="_" horiz-adv-x="909" d="M-31 -334l15 152h940l16 -19l-14 -153h-938z" />
<glyph unicode="`" horiz-adv-x="796" d="M152 1333l98 148l24 2q156 -143 371 -314l-65 -102l-25 -2q-160 93 -399 242z" />
<glyph unicode="a" horiz-adv-x="985" d="M61 266q0 199 211 240l314 59v84q0 133 -131 133q-125 0 -293 -118l-21 12l-30 180q180 115 389 115q157 0 246.5 -71t89.5 -198q0 -36 -11.5 -229t-11.5 -225q0 -34 10.5 -48t36.5 -14q16 0 53 9l21 -17l-25 -143q-65 -43 -149 -51q-62 6 -103.5 44t-54.5 105h-14 q-98 -106 -211 -151q-148 1 -232 77t-84 207zM303 295q0 -54 29 -83.5t80 -29.5q80 0 168 94l4 152l-217 -47q-33 -8 -48.5 -27.5t-15.5 -58.5z" />
<glyph unicode="b" horiz-adv-x="1069" d="M131 2l16 389l-14 1026l273 21l-9 -621h11q113 105 229 148q180 0 276.5 -122t96.5 -339q0 -252 -125.5 -388t-345.5 -136q-107 0 -230 47l-145 -52zM391 426l4 -231q75 -37 142 -37q104 0 161 75q56 74 56 227v5q-2 136 -48 208t-135 72q-84 0 -176 -86z" />
<glyph unicode="c" horiz-adv-x="788" d="M59 465q0 237 121 371.5t336 134.5q144 0 252 -51l-45 -218l-23 -10q-104 58 -186 58q-94 0 -145.5 -67.5t-51.5 -193.5q0 -142 55 -218t158 -76q94 0 205 51l21 -17l-27 -211q-119 -38 -252 -38q-197 0 -307.5 128t-110.5 357z" />
<glyph unicode="d" horiz-adv-x="1075" d="M57 469q0 241 127.5 370.5t352.5 129.5q55 0 131 -13l-4 461l270 21l-16 -1018l4 -172q2 -34 11.5 -48t33.5 -14q14 0 55 9l18 -17l-24 -143q-65 -43 -150 -51q-63 6 -106 43t-60 100h-16q-103 -93 -205 -141q-202 0 -312 127.5t-110 355.5zM311 510q6 -311 195 -311 q87 0 166 84l4 112l-6 353q-76 36 -152 36q-207 0 -207 -266v-8z" />
<glyph unicode="e" horiz-adv-x="964" d="M59 471q0 232 127 365t344 133q178 0 274.5 -99t96.5 -276q0 -55 -8 -113l-39 -39l-543 -2q15 -258 254 -258q133 0 275 74l22 -14l-37 -201q-142 -61 -286 -61q-226 0 -353 130.5t-127 360.5zM317 590l345 10l4 25q0 83 -38.5 124.5t-107.5 41.5q-79 0 -131.5 -52 t-71.5 -149z" />
<glyph unicode="f" horiz-adv-x="673" d="M53 795l15 149h137l-2 113q0 185 109.5 285t308.5 100q78 0 178 -19l-19 -202l-18 -13q-95 41 -168 41q-126 0 -129 -145l-2 -160h231l8 -14l-12 -150h-231l-6 -360l14 -420h-272l16 395l-4 385h-144z" />
<glyph unicode="g" horiz-adv-x="1024" d="M94 -123q65 90 170 154v10q-70 25 -108.5 69t-38.5 117q55 66 139 125v10q-150 83 -150 265q0 159 111 249.5t301 90.5q113 0 201 -37q147 26 301 82l20 -19v-170q-56 -15 -157 -30l-4 -9q30 -61 30 -137q0 -154 -111 -245t-302 -91q-51 0 -119 11q-31 -31 -31 -54 q0 -27 33.5 -43.5t86.5 -24t117.5 -14.5t129 -22t117.5 -39t86.5 -72t33.5 -116q0 -146 -132 -241t-337 -95q-186 0 -286.5 75.5t-100.5 200.5zM315 -121q0 -54 49.5 -86.5t143.5 -32.5q96 0 154.5 33.5t58.5 93.5q0 20 -8.5 35.5t-27 26.5t-37 18.5t-50.5 13.5t-55.5 9.5 t-64 8.5t-64.5 9q-99 -68 -99 -129zM342 641q0 -82 41 -124t121 -42q170 0 170 168q0 156 -160 156q-172 0 -172 -158z" />
<glyph unicode="h" horiz-adv-x="1087" d="M133 0l14 395l-12 1022l273 21l-11 -621h13q112 103 245 148q155 1 237 -71q79 -69 79 -195v-9l-6 -272l12 -418h-275l17 594v8q1 66 -31 104q-34 40 -98 39q-92 0 -195 -86l-4 -239l15 -420h-273z" />
<glyph unicode="i" horiz-adv-x="520" d="M121 1270q0 68 40 108.5t109 40.5q65 0 100.5 -36.5t35.5 -102.5q0 -69 -39.5 -110.5t-106.5 -41.5t-103 37t-36 105zM123 0l14 393l-12 541l272 22l-16 -536l14 -420h-272z" />
<glyph unicode="j" horiz-adv-x="583" d="M2 797l12 147h174l254 14l9 -6l-17 -532l12 -365q0 -163 -78 -268.5t-255 -185.5l-97 120v25q93 52 132.5 121t39.5 180l2 346l-8 387h-164zM143 1270q0 68 40.5 108.5t109.5 40.5q64 0 99.5 -36.5t35.5 -102.5q0 -69 -39 -110.5t-106 -41.5t-103.5 37t-36.5 105z" />
<glyph unicode="k" horiz-adv-x="1013" d="M133 0l14 395l-12 1022l273 21l-17 -1018l15 -420h-273zM406 498v18l237 338l49 98h287l-311 -430q104 -165 331 -477v-29q-69 -15 -254 -36l-28 12q-188 268 -311 506z" />
<glyph unicode="l" horiz-adv-x="538" d="M133 0l14 395l-12 1022l273 21l-17 -1018l15 -420h-273z" />
<glyph unicode="m" horiz-adv-x="1646" d="M123 0l14 393l-12 541l258 22v-139h12q117 105 248 148q232 0 295 -154h10q119 108 266 154q156 0 237 -71q79 -69 79 -198v-6l-6 -272l10 -418h-270l14 594v7q0 144 -127 144q-92 0 -195 -83l-4 -244l11 -418h-271l17 594q0 151 -131 151q-91 0 -197 -86v-239l12 -420 h-270z" />
<glyph unicode="n" horiz-adv-x="1079" d="M123 0l14 393l-12 541l260 22v-139h12q117 105 248 148q156 0 237 -71q79 -69 79 -198v-6l-7 -272l11 -418h-273l17 594q0 73 -32.5 112t-96.5 39q-92 0 -197 -88v-237l12 -420h-272z" />
<glyph unicode="o" horiz-adv-x="1011" d="M59 457q0 249 118.5 381.5t342.5 132.5q209 0 319.5 -122.5t110.5 -354.5q0 -249 -118.5 -381.5t-342.5 -132.5q-209 0 -319.5 123t-110.5 354zM315 510q0 -188 45.5 -268t147.5 -80q98 0 142 64t44 212q0 186 -45.5 267t-146.5 81q-98 0 -142.5 -65t-44.5 -211z" />
<glyph unicode="p" horiz-adv-x="1054" d="M123 -379l12 772l-12 541l260 22l-2 -139h14q106 100 230 148q181 0 276.5 -122t95.5 -341q0 -251 -125.5 -386.5t-349.5 -135.5q-67 0 -137 12l6 -371h-268zM379 420l4 -232q74 -30 141 -30q104 0 161 75q56 74 56 227v5q-3 280 -182 280q-83 0 -178 -88z" />
<glyph unicode="q" horiz-adv-x="1054" d="M57 465q0 243 126 373.5t341 130.5q113 0 246 -45l141 45l23 -13l-16 -536l14 -799h-270l12 430v51h-17q-81 -70 -184 -116q-199 0 -307.5 127.5t-108.5 351.5zM311 500q3 -147 52 -224t139 -77q88 0 172 84l2 108l-6 350q-82 43 -154 43q-205 0 -205 -276v-8z" />
<glyph unicode="r" horiz-adv-x="708" d="M123 0l14 393l-12 541l260 22l-2 -186h14q101 184 252 184q17 0 49 -4v-252l-26 -10q-38 14 -76 14q-118 0 -215 -151v-131l14 -420h-272z" />
<glyph unicode="s" horiz-adv-x="786" d="M43 41l31 213l26 16q64 -54 141.5 -85t137.5 -31q54 0 85.5 27.5t31.5 66.5q0 31 -23.5 55t-61 42t-82.5 36t-90 41.5t-82.5 54t-61 79t-23.5 110.5q0 133 99.5 218t272.5 85q142 0 263 -47l-37 -201l-33 -10q-124 80 -223 80q-50 0 -78.5 -26.5t-28.5 -62.5 q0 -31 23.5 -55t60.5 -41.5t82 -35t90 -41t82 -53.5t60.5 -77.5t23.5 -107.5q0 -61 -23.5 -115.5t-68.5 -99t-119.5 -70.5t-169.5 -26q-150 0 -305 61z" />
<glyph unicode="t" horiz-adv-x="692" d="M25 795l14 149h121v158l248 80l18 -17l-6 -221h244l8 -14l-13 -150h-243l-13 -458q0 -66 25 -93.5t82 -27.5q66 0 137 35l23 -21l-27 -162q-103 -53 -213 -65q-276 27 -276 270l10 170l-2 352h-127z" />
<glyph unicode="u" horiz-adv-x="1069" d="M117 934l264 22l-8 -604q0 -145 123 -145q85 0 178 80v647l258 22l-17 -708q0 -34 11 -48t37 -14q15 0 53 9l20 -17l-24 -143q-64 -42 -150 -51q-63 6 -105 45.5t-59 107.5h-20q-115 -112 -240 -149q-155 0 -236 70.5t-81 203.5l6 242z" />
<glyph unicode="v" horiz-adv-x="909" d="M27 946l254 12l26 -157l144 -545h14l172 530l35 166h237l-319 -952h-293z" />
<glyph unicode="w" horiz-adv-x="1429" d="M27 946l247 12l23 -149l117 -535h16l143 521l33 157h264l21 -143l121 -533h16l139 519l33 157h230l-297 -952h-256l-146 612h-18l-170 -612h-269z" />
<glyph unicode="x" horiz-adv-x="944" d="M27 944l290 14l43 -112l132 -213l129 221l51 96h239l-274 -467l287 -475l-287 -20l-47 121l-135 219l-142 -232l-45 -96h-239l276 477z" />
<glyph unicode="y" horiz-adv-x="915" d="M-43 -227l10 28q127 22 217 69t162 130l-348 946l262 12l31 -151l170 -531h16l166 506l35 170h235l-309 -886q-68 -194 -181.5 -297.5t-322.5 -161.5l-20 2q-72 66 -123 164z" />
<glyph unicode="z" horiz-adv-x="868" d="M55 -6v160l465 622h-274l-170 -14l-17 18l21 176l203 -4h413l105 2l2 -161l-461 -619h289l174 16l14 -18l-18 -176l-238 4h-377z" />
<glyph unicode="{" d="M74 485v129q141 37 141 162q0 38 -21.5 151t-21.5 177q0 117 71.5 179.5t207.5 62.5q53 0 131 -19l12 -20l-23 -140q-49 11 -73 11q-111 0 -111 -125q0 -43 23.5 -144t23.5 -143q0 -146 -139 -211v-10q68 -30 103.5 -85t35.5 -122q0 -45 -23.5 -145t-23.5 -144 q0 -127 111 -127q28 0 73 10l23 -137l-12 -20q-65 -19 -131 -19q-136 0 -207.5 62.5t-71.5 179.5q0 64 21.5 176t21.5 150q0 124 -141 161z" />
<glyph unicode="|" horiz-adv-x="628" d="M209 -506l2 1081l2 1055l188 15l21 -19l-6 -1030v-1112l-185 -14z" />
<glyph unicode="}" d="M10 -205l23 137q45 -10 71 -10q113 0 113 127q0 43 -23.5 143t-23.5 142q0 71 35.5 126t103.5 85v10q-68 32 -103.5 86.5t-35.5 122.5q0 45 23.5 145t23.5 144q0 127 -113 127q-22 0 -71 -11l-23 138l10 20q68 19 134 19q135 0 205.5 -62.5t70.5 -179.5 q0 -64 -21.5 -176.5t-21.5 -151.5q0 -124 141 -162v-127q-141 -41 -141 -161q0 -39 21.5 -151.5t21.5 -176.5q0 -117 -70.5 -179.5t-205.5 -62.5q-66 0 -134 19z" />
<glyph unicode="~" horiz-adv-x="983" d="M61 459v24l168 191l25 10q52 -8 221 -58.5t205 -50.5q12 0 24.5 5t29 19t26.5 23.5t33.5 33.5t33.5 34h25l72 -88v-24l-168 -191l-25 -10q-55 8 -222.5 57t-201.5 49q-19 0 -43 -15.5t-40.5 -31.5t-49.5 -52q-9 -10 -14 -15h-27z" />
<glyph unicode="&#xa1;" horiz-adv-x="540" d="M125 -371l74 846l155 21l27 -27l16 -827l-24 -31l-215 -14zM164 823q0 69 39 110.5t106 41.5t103.5 -36.5t36.5 -104.5t-40.5 -109t-109.5 -41q-64 0 -99.5 36.5t-35.5 102.5z" />
<glyph unicode="&#xa2;" horiz-adv-x="784" d="M59 545q0 209 95.5 339t267.5 158l18 304h170l29 -25l-18 -279q81 -12 147 -43l-45 -217l-23 -10q-103 57 -186 57q-94 0 -145.5 -67.5t-51.5 -192.5q0 -142 55 -218.5t158 -76.5q92 0 205 52l21 -17l-27 -211q-87 -26 -170 -35l-20 -317h-177l-20 23l18 305 q-143 35 -222 157.5t-79 313.5z" />
<glyph unicode="&#xa3;" horiz-adv-x="913" d="M37 14l12 148q77 19 113.5 68.5t36.5 136.5l-2 190h-150l-10 14l14 131h146l-2 144q-1 180 107 276.5t306 96.5q115 0 236 -33l-17 -195l-16 -12q-124 65 -223 65q-158 0 -158 -157l-2 -185h262l8 -12l-10 -133h-260l-2 -174q0 -70 -18 -113.5t-60 -76.5v-9h295l207 15 l10 -15l-18 -190l-258 6h-537z" />
<glyph unicode="&#xa4;" horiz-adv-x="890" d="M29 1012l116 123h25l129 -142q67 43 156 43q78 0 145 -39l123 142l27 4l122 -117v-25l-141 -127q45 -73 45 -159q0 -74 -41 -148l144 -121l2 -24l-117 -125l-25 2l-125 141q-74 -49 -159 -49q-82 0 -150 43l-121 -141l-24 -2l-125 117l2 26l139 123q-45 70 -45 158 q0 79 43 151l-141 121zM279 715q0 -77 49 -125.5t127 -48.5q77 0 126.5 49t49.5 125q0 77 -49.5 126.5t-126.5 49.5q-78 0 -127 -49.5t-49 -126.5z" />
<glyph unicode="&#xa5;" horiz-adv-x="1077" d="M57 242l9 110h350l-80 154h-268l-11 16l9 109h204l-209 401h246l25 -74l203 -380h16l221 372l35 82h240l-232 -401h209l12 -10l-10 -115h-283l-88 -154h369l12 -12l-10 -113h-383l8 -227h-233l10 227h-360z" />
<glyph unicode="&#xa6;" horiz-adv-x="628" d="M209 -506l2 813l182 21l23 -25v-819l-185 -14zM211 766v864l190 15l21 -19l-6 -854l-187 -22z" />
<glyph unicode="&#xa7;" horiz-adv-x="882" d="M51 -141l35 215l25 16q67 -57 141 -89t137 -32q59 0 93 28.5t34 65.5q0 29 -25 55t-65 48.5t-88.5 46.5t-97.5 54t-89 65t-65 86.5t-25 111.5q0 88 51.5 167t139.5 126q-105 84 -105 199q0 129 110 221t275 92q138 0 256 -47l-32 -207l-33 -10q-133 88 -227 88 q-53 0 -86 -29t-33 -65q0 -28 25 -53.5t65.5 -47.5t89.5 -46t97.5 -54t89 -65t65.5 -86t25 -111q0 -88 -52 -166t-141 -125q107 -86 107 -200q0 -129 -110.5 -220.5t-277.5 -91.5q-68 0 -155 16.5t-154 43.5zM291 594q0 -30 15 -56t49.5 -51.5t61.5 -41t79 -42.5 q106 52 106 134q0 30 -12.5 55t-49 52t-54 37.5t-75.5 41.5q-9 5 -14 8q-106 -54 -106 -137z" />
<glyph unicode="&#xa8;" horiz-adv-x="796" d="M92 1262q0 63 36 100t99 37q60 0 92.5 -33.5t32.5 -93.5q0 -65 -36 -102t-99 -37q-60 0 -92.5 33.5t-32.5 95.5zM446 1262q0 63 36.5 100t99.5 37q60 0 92.5 -33.5t32.5 -93.5q0 -64 -36.5 -101.5t-99.5 -37.5q-60 0 -92.5 33.5t-32.5 95.5z" />
<glyph unicode="&#xa9;" horiz-adv-x="1406" d="M88 600q0 281 168.5 453t445.5 172t446 -172t169 -453t-169 -453t-446 -172t-445.5 172t-168.5 453zM184 600q0 -238 143 -384t375 -146t375.5 146.5t143.5 383.5t-143.5 383.5t-375.5 146.5t-375 -146t-143 -384zM393 600q0 168 92.5 260t262.5 92q88 0 182 -34 l-33 -144l-12 -8q-66 37 -144 37q-80 0 -118.5 -44.5t-38.5 -140.5q0 -208 166 -208q75 0 147 30l16 -8l-14 -143q-77 -29 -164 -29q-169 0 -255.5 87.5t-86.5 252.5z" />
<glyph unicode="&#xaa;" horiz-adv-x="696" d="M51 864q0 142 150 166l202 33l3 43q0 43 -19.5 62.5t-62.5 19.5q-75 0 -197 -70l-14 6l-25 138q133 73 272 73q115 0 177.5 -49t62.5 -139q0 -23 -6 -146.5t-6 -138.5q0 -45 26 -45q21 0 33 8l15 -12l-21 -113q-45 -34 -102 -34q-53 0 -79 21.5t-40 76.5h-8 q-66 -75 -148 -100q-99 2 -156 55t-57 145zM242 883q0 -34 17.5 -54t49.5 -20q46 0 92 49l2 107l-110 -21q-51 -9 -51 -61z" />
<glyph unicode="&#xab;" horiz-adv-x="878" d="M37 440v45l278 365l129 -68l5 -26l-213 -289l213 -287l-5 -26l-129 -70zM416 440v45l278 365l129 -68l4 -26l-213 -289l213 -287l-4 -26l-129 -70z" />
<glyph unicode="&#xac;" horiz-adv-x="983" d="M45 459l14 166h813l13 -17v-506l-166 -12l-21 16v334h-635z" />
<glyph unicode="&#xad;" horiz-adv-x="622" d="M55 410v170l488 73l22 -22v-168l-487 -76z" />
<glyph unicode="&#xae;" horiz-adv-x="913" d="M76 1059q0 170 104.5 274.5t276.5 104.5t276.5 -104.5t104.5 -274.5q0 -173 -104.5 -278t-276.5 -105t-276.5 105t-104.5 278zM145 1059q0 -142 86.5 -229t227.5 -87q140 0 225.5 87t85.5 229q0 139 -86 225t-225 86q-141 0 -227.5 -85.5t-86.5 -225.5zM309 870l2 117 l-2 283l174 2q68 0 105 -32.5t37 -92.5q0 -72 -76 -119q42 -64 100 -135l-2 -10q-37 -15 -96 -19l-12 8q-44 67 -72 127h-64l5 -129h-99zM406 1077l63 -4q51 20 51 66q0 56 -71 59l-41 -2z" />
<glyph unicode="&#xaf;" horiz-adv-x="796" d="M96 1200l15 152h573l16 -19l-12 -151h-573z" />
<glyph unicode="&#xb0;" horiz-adv-x="600" d="M33 1071q0 112 77.5 189t190.5 77q111 0 187.5 -77t76.5 -189q0 -110 -77 -187t-187 -77q-112 0 -190 77t-78 187zM152 1071q0 -62 42 -103.5t105 -41.5t105 41.5t42 103.5q0 63 -42 105.5t-105 42.5t-105 -42.5t-42 -105.5z" />
<glyph unicode="&#xb1;" horiz-adv-x="983" d="M47 -219l14 166h857l18 -19l-14 -166h-856zM47 459l14 166h338v340l166 14l19 -21v-333h331l19 -19l-12 -166h-338v-338l-166 -12l-19 16v334h-333z" />
<glyph unicode="&#xb2;" horiz-adv-x="739" d="M68 649v127l192 209q55 63 78 91t44 64t21 62q0 29 -21 48.5t-60 19.5q-43 0 -96 -25.5t-97 -68.5h-25l-36 161q157 107 309 107q107 0 176.5 -51t69.5 -142q0 -59 -38.5 -129t-127.5 -176l-105 -131l4 -4h187l137 8l10 -14l-22 -168l-193 8h-342l-53 -2z" />
<glyph unicode="&#xb3;" horiz-adv-x="657" d="M45 1370q124 76 264 76q117 0 187.5 -52.5t70.5 -138.5q0 -52 -30 -102t-95 -84v-8q148 -44 148 -184q0 -109 -100.5 -176.5t-264.5 -67.5q-80 0 -155 16l-15 152l17 14q78 -22 157 -22q72 0 111 23.5t39 66.5q0 37 -26.5 57.5t-76.5 20.5h-106l-10 14l2 141l63 2 q49 2 85 28.5t36 67.5q0 64 -86 64q-66 0 -160 -51h-22z" />
<glyph unicode="&#xb4;" horiz-adv-x="796" d="M152 1169q225 179 370 314l27 -2l98 -148l-4 -26q-299 -184 -399 -242l-27 2z" />
<glyph unicode="&#xb5;" horiz-adv-x="1069" d="M117 -379l10 772l-10 541l258 22v-637q15 -112 125 -112q85 0 174 80v647l258 22l-17 -700q0 -76 48 -76q15 0 53 15l18 -15l-28 -145q-65 -49 -146 -49q-69 0 -110 33t-66 108h-14q-108 -108 -221 -139q-39 0 -74 6v-373h-258z" />
<glyph unicode="&#xb6;" horiz-adv-x="1069" d="M51 885q0 207 130.5 320.5t369.5 113.5h463l18 -23l-18 -188h-137l-11 -705l2 -124q0 -157 -88 -262t-305 -191l-74 123v26q113 62 162 129.5t49 161.5v105l-10 739h-92q-81 -12 -124.5 -73t-43.5 -163q0 -97 50 -174.5t143 -124.5l-95 -143q-187 43 -288 159.5 t-101 293.5z" />
<glyph unicode="&#xb7;" horiz-adv-x="468" d="M90 512q0 69 40.5 109.5t109.5 40.5q64 0 99.5 -37t35.5 -103q0 -69 -39.5 -110t-106.5 -41t-103 36.5t-36 104.5z" />
<glyph unicode="&#xb8;" horiz-adv-x="796" d="M223 -354l19 114l12 7q62 -62 121 -62q49 0 49 43q0 24 -35 41l-100 57l47 207h131l-37 -151l70 -39q84 -47 84 -121q0 -68 -53 -111t-140 -43q-92 0 -168 58z" />
<glyph unicode="&#xb9;" horiz-adv-x="565" d="M20 1182v170l361 94l31 -23l-11 -495l9 -283h-222l9 258v305l-162 -37z" />
<glyph unicode="&#xba;" horiz-adv-x="710" d="M47 987q0 170 81.5 259t238.5 89q146 0 221.5 -82.5t75.5 -242.5q0 -170 -81.5 -259t-238.5 -89q-146 0 -221.5 82.5t-75.5 242.5zM248 1010q0 -115 25 -161t85 -46q59 0 84 41t25 141q0 113 -26 159t-87 46q-57 0 -81.5 -41t-24.5 -139z" />
<glyph unicode="&#xbb;" horiz-adv-x="872" d="M41 182l213 289l-213 287l4 26l129 70l279 -356v-45l-279 -365l-129 68zM418 182l213 289l-213 287l6 26l127 70l278 -356v-45l-278 -365l-127 68z" />
<glyph unicode="&#xbc;" horiz-adv-x="1529" d="M20 1067v170l361 94l31 -22l-11 -496l9 -283h-222l9 258v306l-162 -37zM133 -90l959 1495l110 -68l15 -39l-955 -1486l-117 69zM819 190v134l338 467h201l-6 -453h110l13 -19l-11 -147l-108 4l10 -162l-12 -14l-170 -8l-13 10l5 176h-207l-135 -6zM1008 338h172l-2 221 h-13z" />
<glyph unicode="&#xbd;" horiz-adv-x="1583" d="M20 1067v170l361 94l31 -22l-11 -496l9 -283h-222l9 258v306l-162 -37zM133 -90l959 1495l110 -68l15 -39l-955 -1486l-117 69zM911 4v127l193 209q55 63 78 91t44 64t21 62q0 29 -21.5 48.5t-60.5 19.5q-43 0 -95.5 -26t-96.5 -69h-25l-37 162q157 107 310 107 q107 0 176 -51t69 -142q0 -59 -38.5 -129t-127.5 -176l-104 -131l4 -4h186l138 8l10 -14l-23 -168l-192 8h-342l-53 -2z" />
<glyph unicode="&#xbe;" horiz-adv-x="1607" d="M45 1255q124 76 264 76q117 0 187.5 -52t70.5 -138q0 -52 -30 -102.5t-95 -84.5v-8q148 -44 148 -184q0 -109 -100.5 -176.5t-264.5 -67.5q-75 0 -155 17l-15 151l17 14q78 -22 157 -22q72 0 111 23.5t39 66.5q0 37 -26.5 57.5t-76.5 20.5h-106l-10 14l2 141l63 3 q49 2 85 28.5t36 67.5q0 63 -86 63q-66 0 -160 -51h-22zM211 -90l958 1495l111 -68l14 -39l-954 -1486l-117 69zM897 190v134l338 467h201l-6 -453h110l12 -19l-10 -147l-108 4l10 -162l-12 -14l-170 -8l-13 10l4 176h-206l-136 -6zM1085 338h172l-2 221h-12z" />
<glyph unicode="&#xbf;" horiz-adv-x="696" d="M-27 -78q0 85 48 158t139 125l147 88l4 10l-12 174l190 25l19 -19l20 -245l-10 -21l-184 -94q-115 -61 -115 -158q0 -81 88 -125.5t285 -56.5l18 -27l-49 -151l-26 -15q-270 15 -416 100t-146 232zM248 823q0 69 39 110.5t106 41.5t103 -36.5t36 -104.5t-40 -109 t-109 -41q-64 0 -99.5 36.5t-35.5 102.5z" />
<glyph unicode="&#xc0;" horiz-adv-x="1228" d="M16 0l445 1319h332l403 -1319h-283l-32 172l-35 123l-258 6l-228 -6l-34 -109l-35 -186h-275zM360 1653l68 162l27 6q179 -107 424 -230l-43 -114l-27 -9q-227 77 -440 160zM432 510l174 -4l180 4l-155 549h-19z" />
<glyph unicode="&#xc1;" horiz-adv-x="1228" d="M16 0l445 1319h332l403 -1319h-283l-32 172l-35 123l-258 6l-228 -6l-34 -109l-35 -186h-275zM401 1589q245 124 426 232l25 -6l70 -162l-9 -25q-213 -82 -440 -160l-27 9zM432 510l174 -4l180 4l-155 549h-19z" />
<glyph unicode="&#xc2;" horiz-adv-x="1228" d="M16 0l445 1319h332l403 -1319h-283l-32 172l-35 123l-258 6l-228 -6l-34 -109l-35 -186h-275zM315 1599q149 99 275 213h55q119 -104 275 -213l-50 -108h-26q-199 113 -226 129q-40 -24 -225 -129h-26zM432 510l174 -4l180 4l-155 549h-19z" />
<glyph unicode="&#xc3;" horiz-adv-x="1228" d="M16 0l445 1319h332l403 -1319h-283l-32 172l-35 123l-258 6l-228 -6l-34 -109l-35 -186h-275zM256 1554v23l145 182l25 10q48 -6 169 -38.5t146 -32.5q9 0 17.5 2.5t18.5 9t17 11.5t18.5 17.5t17.5 18.5t20.5 22.5t19.5 22.5h25l80 -80v-22l-144 -182l-26 -11 q-46 6 -167.5 39t-148.5 33q-12 0 -23.5 -5t-26 -17.5t-22.5 -21t-27.5 -30.5t-27.5 -30h-24zM432 510l174 -4l180 4l-155 549h-19z" />
<glyph unicode="&#xc4;" horiz-adv-x="1228" d="M16 0l445 1319h332l403 -1319h-283l-32 172l-35 123l-258 6l-228 -6l-34 -109l-35 -186h-275zM311 1628q0 63 36 100t99 37q60 0 92.5 -33.5t32.5 -93.5q0 -65 -36 -102t-99 -37q-60 0 -92.5 33.5t-32.5 95.5zM432 510l174 -4l180 4l-155 549h-19zM666 1628q0 63 36 100 t99 37q60 0 92.5 -33.5t32.5 -93.5q0 -65 -36 -102t-99 -37q-60 0 -92.5 33.5t-32.5 95.5z" />
<glyph unicode="&#xc5;" horiz-adv-x="1228" d="M16 0l445 1319h332l403 -1319h-283l-32 172l-35 123l-258 6l-228 -6l-34 -109l-35 -186h-275zM420 1655q0 93 52.5 143.5t148.5 50.5q94 0 143 -49t49 -137q0 -95 -54.5 -148t-148.5 -53q-89 0 -139.5 49.5t-50.5 143.5zM432 510l174 -4l180 4l-155 549h-19zM532 1657 q0 -82 84 -82t84 78q0 80 -86 80q-82 0 -82 -76z" />
<glyph unicode="&#xc6;" horiz-adv-x="1683" d="M-37 0l635 1319h901l19 -23l-23 -206l-317 10h-181l45 -371l398 102l20 -16l23 -194l-416 -99l37 -305h209l338 12l16 -22l-18 -207h-797l-10 172l-35 281l-434 -115l-72 -152l-61 -186h-277zM492 586l290 76l-49 397h-18z" />
<glyph unicode="&#xc7;" horiz-adv-x="1058" d="M57 647q0 328 164.5 508t464.5 180q194 0 348 -80l-51 -231l-20 -10q-129 92 -287 92q-328 0 -328 -428q0 -231 86 -347t250 -116q163 0 301 88l27 -14l-23 -236q-135 -62 -287 -71l-20 -80l70 -39q84 -47 84 -121q0 -68 -53 -111t-140 -43q-92 0 -168 58l19 114l12 7 q62 -62 121 -62q49 0 49 43q0 24 -35 41l-100 57l32 140q-253 26 -384.5 195t-131.5 466z" />
<glyph unicode="&#xc8;" horiz-adv-x="1042" d="M160 0l16 393l-16 926h835l15 -23l-19 -206l-317 10l-236 -2l-4 -320l223 -2l217 6l17 -20l-19 -207l-233 6l-209 -2l-2 -141l6 -199l230 -2l325 12l15 -22l-17 -207h-827zM324 1655l69 162l25 6q181 -108 426 -232l-45 -112l-27 -9q-227 78 -440 160z" />
<glyph unicode="&#xc9;" horiz-adv-x="1042" d="M160 0l16 393l-16 926h835l15 -23l-19 -206l-317 10l-236 -2l-4 -320l223 -2l217 6l17 -20l-19 -207l-233 6l-209 -2l-2 -141l6 -199l230 -2l325 12l15 -22l-17 -207h-827zM362 1589q245 124 426 232l25 -6l70 -162l-9 -25q-213 -82 -440 -160l-26 9z" />
<glyph unicode="&#xca;" horiz-adv-x="1042" d="M160 0l16 393l-16 926h835l15 -23l-19 -206l-317 10l-236 -2l-4 -320l223 -2l217 6l17 -20l-19 -207l-233 6l-209 -2l-2 -141l6 -199l230 -2l325 12l15 -22l-17 -207h-827zM274 1599q165 115 273 213h57q113 -100 275 -213l-50 -108h-26q-59 32 -225 129l-226 -129h-26z " />
<glyph unicode="&#xcb;" horiz-adv-x="1042" d="M160 0l16 393l-16 926h835l15 -23l-19 -206l-317 10l-236 -2l-4 -320l223 -2l217 6l17 -20l-19 -207l-233 6l-209 -2l-2 -141l6 -199l230 -2l325 12l15 -22l-17 -207h-827zM272 1628q0 63 36.5 100t99.5 37q60 0 92 -33.5t32 -93.5q0 -65 -36 -102t-99 -37 q-60 0 -92.5 33.5t-32.5 95.5zM627 1628q0 63 36 100t99 37q60 0 92.5 -33.5t32.5 -93.5q0 -65 -36 -102t-99 -37q-60 0 -92.5 33.5t-32.5 95.5z" />
<glyph unicode="&#xcc;" d="M45 1655l70 162l24 6q181 -108 426 -232l-45 -112l-26 -9q-236 81 -441 160zM160 0l16 393l-16 926h282l-14 -901l12 -418h-280z" />
<glyph unicode="&#xcd;" d="M86 1589q245 124 426 232l25 -6l69 -162l-8 -25q-213 -82 -440 -160l-27 9zM160 0l16 393l-16 926h282l-14 -901l12 -418h-280z" />
<glyph unicode="&#xce;" d="M-2 1599q145 97 274 213h56q122 -108 274 -213l-49 -108h-27q-185 105 -225 129q-40 -24 -225 -129h-27zM160 0l16 393l-16 926h282l-14 -901l12 -418h-280z" />
<glyph unicode="&#xd0;" horiz-adv-x="1392" d="M31 582l10 166h180l-10 571h2l530 8q286 0 439 -159.5t153 -458.5q0 -350 -171.5 -536.5t-491.5 -186.5q-226 0 -459 14h-2l16 393l-2 170h-182zM479 418l6 -203q143 -14 238 -14q324 0 324 444q0 241 -79.5 351t-246.5 110q-105 0 -232 -10l-4 -348h240l12 -19l-8 -166 h-248z" />
<glyph unicode="&#xd1;" horiz-adv-x="1423" d="M160 0l16 389l-14 930h299l536 -893h19l-8 881l260 16l-19 -915l11 -408h-299l-537 893h-18l-3 -438l13 -455h-256zM348 1554v23l146 182l24 10q48 -6 169.5 -38.5t146.5 -32.5q9 0 17.5 2.5t18.5 9t17 11.5t18.5 17.5t17.5 18.5t20.5 22.5t19.5 22.5h24l80 -80v-22 l-143 -182l-27 -11q-46 6 -167 39t-148 33q-12 0 -23.5 -5t-26 -17.5t-22.5 -21t-27.5 -30.5t-27.5 -30h-25z" />
<glyph unicode="&#xd2;" horiz-adv-x="1316" d="M57 643q0 333 163 513.5t462 180.5q277 0 427.5 -169t150.5 -480q0 -339 -162.5 -523.5t-460.5 -184.5q-278 0 -429 173t-151 490zM346 680q0 -262 73 -373.5t240 -111.5q163 0 237.5 102.5t74.5 335.5q0 259 -73.5 369t-242.5 110q-163 0 -236 -101t-73 -331zM406 1655 l69 162l25 6q181 -108 426 -232l-45 -112l-27 -9q-227 78 -440 160z" />
<glyph unicode="&#xd3;" horiz-adv-x="1316" d="M57 643q0 333 163 513.5t462 180.5q277 0 427.5 -169t150.5 -480q0 -339 -162.5 -523.5t-460.5 -184.5q-278 0 -429 173t-151 490zM346 680q0 -262 73 -373.5t240 -111.5q163 0 237.5 102.5t74.5 335.5q0 259 -73.5 369t-242.5 110q-163 0 -236 -101t-73 -331zM444 1589 q245 124 426 232l25 -6l70 -162l-9 -25q-213 -82 -440 -160l-27 9z" />
<glyph unicode="&#xd4;" horiz-adv-x="1316" d="M57 643q0 333 163 513.5t462 180.5q277 0 427.5 -169t150.5 -480q0 -339 -162.5 -523.5t-460.5 -184.5q-278 0 -429 173t-151 490zM346 680q0 -262 73 -373.5t240 -111.5q163 0 237.5 102.5t74.5 335.5q0 259 -73.5 369t-242.5 110q-163 0 -236 -101t-73 -331zM358 1599 q149 99 275 213h55q119 -104 275 -213l-50 -108h-26q-185 105 -225 129q-27 -16 -226 -129h-26z" />
<glyph unicode="&#xd5;" horiz-adv-x="1316" d="M57 643q0 333 163 513.5t462 180.5q277 0 427.5 -169t150.5 -480q0 -339 -162.5 -523.5t-460.5 -184.5q-278 0 -429 173t-151 490zM299 1554v23l145 182l25 10q48 -6 169 -38.5t146 -32.5q9 0 17.5 2.5t18.5 9t17 11.5t18.5 17.5t17.5 18.5t20.5 22.5t19.5 22.5h25 l80 -80v-22l-144 -182l-26 -11q-46 6 -167.5 39t-148.5 33q-12 0 -23.5 -5t-25.5 -17.5t-22.5 -21.5t-27 -30t-27.5 -30h-25zM346 680q0 -262 73 -373.5t240 -111.5q163 0 237.5 102.5t74.5 335.5q0 259 -73.5 369t-242.5 110q-163 0 -236 -101t-73 -331z" />
<glyph unicode="&#xd7;" horiz-adv-x="983" d="M127 272v23l235 240l-235 233v29l125 106l240 -239l239 239l127 -106v-29l-235 -233l235 -238v-25l-127 -108l-239 237l-240 -239z" />
<glyph unicode="&#xd8;" horiz-adv-x="1316" d="M57 643q0 333 163 513.5t462 180.5q94 0 180 -22l105 217l170 -62l16 -28l-104 -217q103 -80 157 -216.5t54 -320.5q0 -339 -162.5 -523.5t-460.5 -184.5q-98 0 -174 20l-117 -244l-174 64l-12 24l116 244q-219 170 -219 555zM346 680q0 -262 73 -373.5t240 -111.5 q163 0 237.5 102.5t74.5 335.5q0 259 -73.5 369t-242.5 110q-163 0 -236 -101t-73 -331z" />
<glyph unicode="&#xd9;" horiz-adv-x="1306" d="M125 1319h278l-14 -817q-1 -149 63.5 -221t198.5 -72q265 0 262 278l-12 832h281l-8 -670l-3 -174q3 -236 -136.5 -364.5t-399.5 -128.5q-249 0 -380.5 125t-127.5 358l4 190zM401 1655l70 162l25 6q181 -108 426 -232l-45 -112l-27 -9q-227 78 -440 160z" />
<glyph unicode="&#xda;" horiz-adv-x="1306" d="M125 1319h278l-14 -817q-1 -149 63.5 -221t198.5 -72q265 0 262 278l-12 832h281l-8 -670l-3 -174q3 -236 -136.5 -364.5t-399.5 -128.5q-249 0 -380.5 125t-127.5 358l4 190zM442 1589q245 124 426 232l25 -6l70 -162l-9 -25q-213 -82 -440 -160l-27 9z" />
<glyph unicode="&#xdb;" horiz-adv-x="1306" d="M125 1319h278l-14 -817q-1 -149 63.5 -221t198.5 -72q265 0 262 278l-12 832h281l-8 -670l-3 -174q3 -236 -136.5 -364.5t-399.5 -128.5q-249 0 -380.5 125t-127.5 358l4 190zM354 1599q149 99 275 213h55q122 -108 274 -213l-49 -108h-26q-199 113 -226 129 q-40 -24 -225 -129h-26z" />
<glyph unicode="&#xdc;" horiz-adv-x="1306" d="M125 1319h278l-14 -817q-1 -149 63.5 -221t198.5 -72q265 0 262 278l-12 832h281l-8 -670l-3 -174q3 -236 -136.5 -364.5t-399.5 -128.5q-249 0 -380.5 125t-127.5 358l4 190zM352 1628q0 63 36 100t99 37q60 0 92.5 -33.5t32.5 -93.5q0 -65 -36 -102t-99 -37 q-60 0 -92.5 33.5t-32.5 95.5zM709 1628q0 63 36 100t99 37q60 0 92.5 -33.5t32.5 -93.5q0 -65 -36 -102t-99 -37q-60 0 -92.5 33.5t-32.5 95.5z" />
<glyph unicode="&#xde;" horiz-adv-x="1148" d="M160 0l14 393l-10 717l-4 209h284l-4 -207h234q211 0 321.5 -102.5t110.5 -302.5q0 -231 -140.5 -358.5t-400.5 -127.5l-131 -2l6 -219h-280zM430 434l193 -8q94 26 142 88.5t48 171.5q0 112 -55 164t-172 57l-148 -6z" />
<glyph unicode="&#xdf;" horiz-adv-x="1245" d="M53 795l13 149h133v60q0 207 129.5 322.5t347.5 115.5q184 0 280.5 -80.5t96.5 -208.5q0 -58 -20.5 -106.5t-50.5 -82t-59.5 -63.5t-50 -64t-20.5 -71q0 -44 29 -80.5t72 -61t93.5 -56.5t93.5 -64.5t72 -87.5t29 -123q0 -62 -23.5 -117.5t-69 -99.5t-119 -70t-165.5 -26 q-144 0 -293 61l33 213l25 16q62 -54 132.5 -85t127.5 -31q54 0 85.5 26t31.5 66q0 31 -21.5 58t-56 49.5t-76 46.5t-83 53.5t-76 64.5t-56 86.5t-21.5 112.5q0 60 21.5 107.5t52 78t61.5 59t52.5 66t21.5 84.5q0 68 -43.5 102.5t-122.5 34.5q-93 0 -146 -52.5t-54 -162.5 l-10 -616l14 -418h-273l17 389l-6 391h-140z" />
<glyph unicode="&#xe0;" horiz-adv-x="985" d="M61 266q0 198 211 240l314 59v84q0 133 -131 133q-125 0 -293 -118l-21 12l-30 180q183 115 389 115q157 0 246.5 -71t89.5 -198q0 -36 -11.5 -229t-11.5 -225q0 -34 11 -48t38 -14q16 0 53 9l19 -17l-23 -143q-68 -43 -151 -51q-62 6 -103.5 44t-54.5 105h-14 q-98 -106 -209 -151q-148 2 -233 78t-85 206zM231 1333l99 148l26 2q139 -130 371 -314l-65 -102l-27 -2q-100 58 -399 242zM303 295q0 -54 29 -83.5t80 -29.5q80 0 168 94l4 152l-215 -47q-35 -8 -50.5 -27.5t-15.5 -58.5z" />
<glyph unicode="&#xe1;" horiz-adv-x="985" d="M61 266q0 198 211 240l314 59v84q0 133 -131 133q-125 0 -293 -118l-21 12l-30 180q183 115 389 115q157 0 246.5 -71t89.5 -198q0 -36 -11.5 -229t-11.5 -225q0 -34 11 -48t38 -14q16 0 53 9l19 -17l-23 -143q-68 -43 -151 -51q-62 6 -103.5 44t-54.5 105h-14 q-98 -106 -209 -151q-148 2 -233 78t-85 206zM281 1169q225 179 370 314l27 -2l98 -148l-4 -26q-299 -184 -399 -242l-27 2zM303 295q0 -54 29 -83.5t80 -29.5q80 0 168 94l4 152l-215 -47q-35 -8 -50.5 -27.5t-15.5 -58.5z" />
<glyph unicode="&#xe2;" horiz-adv-x="985" d="M61 266q0 198 211 240l314 59v84q0 133 -131 133q-125 0 -293 -118l-21 12l-30 180q183 115 389 115q157 0 246.5 -71t89.5 -198q0 -36 -11.5 -229t-11.5 -225q0 -34 11 -48t38 -14q16 0 53 9l19 -17l-23 -143q-68 -43 -151 -51q-62 6 -103.5 44t-54.5 105h-14 q-98 -106 -209 -151q-148 2 -233 78t-85 206zM162 1182q123 112 289 288h59q156 -170 287 -288l-68 -105h-27q-135 107 -223 189q-81 -76 -221 -189h-27zM303 295q0 -54 29 -83.5t80 -29.5q80 0 168 94l4 152l-215 -47q-35 -8 -50.5 -27.5t-15.5 -58.5z" />
<glyph unicode="&#xe3;" horiz-adv-x="985" d="M61 266q0 198 211 240l314 59v84q0 133 -131 133q-125 0 -293 -118l-21 12l-30 180q183 115 389 115q157 0 246.5 -71t89.5 -198q0 -36 -11.5 -229t-11.5 -225q0 -34 11 -48t38 -14q16 0 53 9l19 -17l-23 -143q-68 -43 -151 -51q-62 6 -103.5 44t-54.5 105h-14 q-98 -106 -209 -151q-148 2 -233 78t-85 206zM117 1188v22l145 183l25 10q48 -6 169 -39t146 -33q9 0 18 2.5t18.5 9t16.5 12t18.5 17.5t18 19t20 22.5t19.5 22.5h25l80 -80v-23l-144 -182l-26 -10q-46 6 -167.5 38.5t-148.5 32.5q-12 0 -23.5 -5t-26 -17.5t-22.5 -21 t-27.5 -30.5t-27.5 -30h-24zM303 295q0 -54 29 -83.5t80 -29.5q80 0 168 94l4 152l-215 -47q-35 -8 -50.5 -27.5t-15.5 -58.5z" />
<glyph unicode="&#xe4;" horiz-adv-x="985" d="M61 266q0 198 211 240l314 59v84q0 133 -131 133q-125 0 -293 -118l-21 12l-30 180q183 115 389 115q157 0 246.5 -71t89.5 -198q0 -36 -11.5 -229t-11.5 -225q0 -34 11 -48t38 -14q16 0 53 9l19 -17l-23 -143q-68 -43 -151 -51q-62 6 -103.5 44t-54.5 105h-14 q-98 -106 -209 -151q-148 2 -233 78t-85 206zM174 1262q0 63 36 100t99 37q60 0 92.5 -33.5t32.5 -93.5q0 -65 -36 -102t-99 -37q-60 0 -92.5 33.5t-32.5 95.5zM303 295q0 -54 29 -83.5t80 -29.5q80 0 168 94l4 152l-215 -47q-35 -8 -50.5 -27.5t-15.5 -58.5zM530 1262 q0 63 36.5 100t99.5 37q60 0 92.5 -33.5t32.5 -93.5q0 -64 -36.5 -101.5t-99.5 -37.5q-60 0 -92.5 33.5t-32.5 95.5z" />
<glyph unicode="&#xe5;" horiz-adv-x="985" d="M61 266q0 198 211 240l314 59v84q0 133 -131 133q-125 0 -293 -118l-21 12l-30 180q183 115 389 115q157 0 246.5 -71t89.5 -198q0 -36 -11.5 -229t-11.5 -225q0 -34 11 -48t38 -14q16 0 53 9l19 -17l-23 -143q-68 -43 -151 -51q-62 6 -103.5 44t-54.5 105h-14 q-98 -106 -209 -151q-148 2 -233 78t-85 206zM281 1288q0 93 52 144t148 51q94 0 143.5 -49.5t49.5 -137.5q0 -95 -54.5 -147.5t-148.5 -52.5q-89 0 -139.5 49t-50.5 143zM303 295q0 -54 29 -83.5t80 -29.5q80 0 168 94l4 152l-215 -47q-35 -8 -50.5 -27.5t-15.5 -58.5z M393 1290q0 -82 84 -82t84 78q0 80 -86 80q-82 0 -82 -76z" />
<glyph unicode="&#xe6;" horiz-adv-x="1421" d="M57 262q0 100 54 167t157 79l307 33v108q0 133 -129 133q-120 0 -290 -120l-19 12l-33 184q179 113 375 113q176 0 250 -109q110 107 281 107q176 0 272.5 -114t83.5 -323l-27 -32l-544 -64q9 -131 67 -193.5t174 -62.5q133 0 269 74l22 -14l-39 -199q-135 -61 -274 -61 q-244 0 -355 176q-113 -119 -256 -174q-159 2 -252.5 75t-93.5 205zM301 291q0 -52 29.5 -79.5t81.5 -27.5q40 0 79.5 22t102.5 79q-14 77 -16 121l-197 -29q-43 -7 -61.5 -28t-18.5 -58zM793 569l333 47q1 88 -36 131.5t-107 43.5q-80 -2 -135 -65t-55 -155v-2z" />
<glyph unicode="&#xe7;" horiz-adv-x="788" d="M59 465q0 237 121 371.5t336 134.5q145 0 250 -51l-45 -218l-23 -10q-104 58 -184 58q-95 0 -146 -67.5t-51 -193.5q0 -142 55 -218t158 -76q92 0 203 51l23 -17l-29 -211q-104 -33 -209 -36l-18 -80l69 -39q84 -47 84 -121q0 -68 -52.5 -111t-139.5 -43q-92 0 -168 58 l18 114l13 7q62 -62 120 -62q50 0 50 43q0 24 -35 41l-101 57l33 140q-159 28 -245.5 152.5t-86.5 326.5z" />
<glyph unicode="&#xe8;" horiz-adv-x="964" d="M59 471q0 232 127 365t344 133q177 0 274 -99.5t97 -275.5q0 -55 -8 -113l-39 -39l-545 -2q15 -258 254 -258q132 0 277 74l22 -14l-37 -201q-145 -61 -288 -61q-225 0 -351.5 130.5t-126.5 360.5zM262 1333l98 148l27 2q139 -130 371 -314l-66 -102l-26 -2 q-118 68 -400 242zM315 590l347 10l4 25q0 83 -38.5 124.5t-107.5 41.5q-81 0 -133.5 -52t-71.5 -149z" />
<glyph unicode="&#xe9;" horiz-adv-x="964" d="M59 471q0 232 127 365t344 133q177 0 274 -99.5t97 -275.5q0 -55 -8 -113l-39 -39l-545 -2q15 -258 254 -258q132 0 277 74l22 -14l-37 -201q-145 -61 -288 -61q-225 0 -351.5 130.5t-126.5 360.5zM311 1169q232 184 371 314l27 -2l98 -148l-4 -26q-282 -174 -400 -242 l-26 2zM315 590l347 10l4 25q0 83 -38.5 124.5t-107.5 41.5q-81 0 -133.5 -52t-71.5 -149z" />
<glyph unicode="&#xea;" horiz-adv-x="964" d="M59 471q0 232 127 365t344 133q177 0 274 -99.5t97 -275.5q0 -55 -8 -113l-39 -39l-545 -2q15 -258 254 -258q132 0 277 74l22 -14l-37 -201q-145 -61 -288 -61q-225 0 -351.5 130.5t-126.5 360.5zM195 1182q116 106 288 288h60q160 -175 286 -288l-67 -105h-27 q-135 107 -223 189q-81 -76 -221 -189h-27zM315 590l347 10l4 25q0 83 -38.5 124.5t-107.5 41.5q-81 0 -133.5 -52t-71.5 -149z" />
<glyph unicode="&#xeb;" horiz-adv-x="964" d="M59 471q0 232 127 365t344 133q177 0 274 -99.5t97 -275.5q0 -55 -8 -113l-39 -39l-545 -2q15 -258 254 -258q132 0 277 74l22 -14l-37 -201q-145 -61 -288 -61q-225 0 -351.5 130.5t-126.5 360.5zM205 1262q0 63 36 100t99 37q60 0 92.5 -33.5t32.5 -93.5 q0 -65 -36 -102t-99 -37q-60 0 -92.5 33.5t-32.5 95.5zM315 590l347 10l4 25q0 83 -38.5 124.5t-107.5 41.5q-81 0 -133.5 -52t-71.5 -149zM561 1262q0 63 36 100t99 37q60 0 92.5 -33.5t32.5 -93.5q0 -65 -36 -102t-99 -37q-60 0 -92.5 33.5t-32.5 95.5z" />
<glyph unicode="&#xec;" horiz-adv-x="520" d="M16 1333l99 148l26 2q139 -130 371 -314l-66 -102l-26 -2q-118 68 -400 242zM123 0l14 393l-12 541l272 22l-16 -536l14 -420h-272z" />
<glyph unicode="&#xed;" horiz-adv-x="520" d="M66 1169q225 179 370 314l27 -2l98 -148l-4 -26q-299 -184 -399 -242l-27 2zM123 0l14 393l-12 541l272 22l-16 -536l14 -420h-272z" />
<glyph unicode="&#xee;" horiz-adv-x="520" d="M-53 1182q123 112 289 288h59q156 -170 287 -288l-68 -105h-27q-135 107 -223 189q-81 -76 -221 -189h-27zM123 0l14 393l-12 541l272 22l-16 -536l14 -420h-272z" />
<glyph unicode="&#xf0;" horiz-adv-x="1017" d="M68 459q0 231 111.5 356t322.5 125q53 0 92 -8q-59 95 -156 170l-237 -135l-23 8l-55 108l186 107q-87 52 -203 102v33l170 127h17q138 -70 229 -139l223 127l23 -6l55 -111l-186 -106q309 -291 309 -709q0 -254 -116.5 -391t-333.5 -137q-203 0 -315.5 123.5 t-112.5 355.5zM311 459q0 -159 50 -231t151 -72t145.5 75.5t44.5 249.5q0 119 -18 213q-71 62 -168 62q-106 0 -155.5 -70.5t-49.5 -226.5z" />
<glyph unicode="&#xf1;" horiz-adv-x="1079" d="M123 0l14 393l-12 541l260 22l-2 -139h16q111 103 246 148q156 0 237.5 -71.5t78.5 -203.5l-7 -272l13 -418h-275l17 594q2 72 -31.5 111.5t-97.5 39.5q-92 0 -197 -88l-2 -237l14 -420h-272zM213 1188v22l145 183l25 10q48 -6 169 -39t146 -33q9 0 18 2.5t18.5 9 t16.5 12t18.5 17.5t18 19t20 22.5t19.5 22.5h25l80 -80v-23l-144 -182l-26 -10q-46 6 -167.5 38.5t-148.5 32.5q-12 0 -23.5 -5t-26 -17.5t-22.5 -21t-27.5 -30.5t-27.5 -30h-24z" />
<glyph unicode="&#xf2;" horiz-adv-x="1011" d="M59 457q0 249 118 381.5t341 132.5q209 0 319.5 -122.5t110.5 -354.5q0 -249 -118 -381.5t-341 -132.5q-209 0 -319.5 123t-110.5 354zM260 1333l98 148l27 2q139 -130 371 -314l-66 -102l-26 -2q-118 68 -400 242zM315 510q0 -188 46 -268t149 -80q97 0 140.5 64 t43.5 212q0 186 -45 267t-147 81q-97 0 -142 -65.5t-45 -210.5z" />
<glyph unicode="&#xf3;" horiz-adv-x="1011" d="M59 457q0 249 118 381.5t341 132.5q209 0 319.5 -122.5t110.5 -354.5q0 -249 -118 -381.5t-341 -132.5q-209 0 -319.5 123t-110.5 354zM309 1169q232 184 371 314l27 -2l98 -148l-4 -26q-282 -174 -400 -242l-26 2zM315 510q0 -188 46 -268t149 -80q97 0 140.5 64 t43.5 212q0 186 -45 267t-147 81q-97 0 -142 -65.5t-45 -210.5z" />
<glyph unicode="&#xf4;" horiz-adv-x="1011" d="M59 457q0 249 118 381.5t341 132.5q209 0 319.5 -122.5t110.5 -354.5q0 -249 -118 -381.5t-341 -132.5q-209 0 -319.5 123t-110.5 354zM193 1182q116 106 288 288h60q160 -175 286 -288l-67 -105h-27q-135 107 -223 189q-81 -76 -221 -189h-27zM315 510q0 -188 46 -268 t149 -80q97 0 140.5 64t43.5 212q0 186 -45 267t-147 81q-97 0 -142 -65.5t-45 -210.5z" />
<glyph unicode="&#xf5;" horiz-adv-x="1011" d="M59 457q0 249 118 381.5t341 132.5q209 0 319.5 -122.5t110.5 -354.5q0 -249 -118 -381.5t-341 -132.5q-209 0 -319.5 123t-110.5 354zM147 1188v22l146 183l24 10q48 -6 169.5 -39t146.5 -33q9 0 18 2.5t18.5 9t16.5 12t18.5 17.5t18 19t20 22.5t19.5 22.5h24l80 -80 v-23l-143 -182l-27 -10q-46 6 -167 38.5t-148 32.5q-12 0 -23.5 -5t-26 -17.5t-22.5 -21t-27.5 -30.5t-27.5 -30h-25zM315 510q0 -188 46 -268t149 -80q97 0 140.5 64t43.5 212q0 186 -45 267t-147 81q-97 0 -142 -65.5t-45 -210.5z" />
<glyph unicode="&#xf7;" horiz-adv-x="983" d="M59 459l15 166h854l20 -19l-14 -166h-856zM395 186q0 60 35.5 96.5t95.5 36.5q58 0 89.5 -32.5t31.5 -89.5q0 -62 -34.5 -99t-94.5 -37t-91.5 32.5t-31.5 92.5zM395 879q0 61 35.5 97t95.5 36q58 0 89.5 -32t31.5 -91q0 -62 -34.5 -97.5t-94.5 -35.5t-91.5 32t-31.5 91z " />
<glyph unicode="&#xf8;" horiz-adv-x="1011" d="M49 -158l135 246q-125 122 -125 369q0 249 118 381.5t341 132.5q68 0 141 -17l121 215l148 -73l14 -25l-117 -209q123 -126 123 -368q0 -249 -118 -381.5t-341 -132.5q-71 0 -137 16l-141 -252l-156 76zM315 510q0 -188 46 -268t149 -80q97 0 140.5 64t43.5 212 q0 186 -45 267t-147 81q-97 0 -142 -65.5t-45 -210.5z" />
<glyph unicode="&#xf9;" horiz-adv-x="1069" d="M117 934l264 22l-6 -604q-3 -145 121 -145q89 0 178 80v647l260 22l-19 -708q0 -33 11.5 -47.5t36.5 -14.5q15 0 53 9l20 -17l-24 -143q-65 -43 -150 -51q-125 12 -164 153h-18q-118 -112 -242 -149q-155 0 -236 70.5t-81 203.5l6 242zM283 1333l98 148l27 2 q145 -135 370 -314l-65 -102l-27 -2q-100 58 -399 242z" />
<glyph unicode="&#xfa;" horiz-adv-x="1069" d="M117 934l264 22l-6 -604q-3 -145 121 -145q89 0 178 80v647l260 22l-19 -708q0 -33 11.5 -47.5t36.5 -14.5q15 0 53 9l20 -17l-24 -143q-65 -43 -150 -51q-125 12 -164 153h-18q-118 -112 -242 -149q-155 0 -236 70.5t-81 203.5l6 242zM332 1169q225 179 370 314l27 -2 l98 -148l-4 -26q-299 -184 -399 -242l-27 2z" />
<glyph unicode="&#xfb;" horiz-adv-x="1069" d="M117 934l264 22l-6 -604q-3 -145 121 -145q89 0 178 80v647l260 22l-19 -708q0 -33 11.5 -47.5t36.5 -14.5q15 0 53 9l20 -17l-24 -143q-65 -43 -150 -51q-125 12 -164 153h-18q-118 -112 -242 -149q-155 0 -236 70.5t-81 203.5l6 242zM213 1182q123 112 289 288h59 q156 -170 287 -288l-68 -105h-26q-141 112 -224 189q-81 -76 -221 -189h-26z" />
<glyph unicode="&#xfc;" horiz-adv-x="1069" d="M117 934l264 22l-6 -604q-3 -145 121 -145q89 0 178 80v647l260 22l-19 -708q0 -33 11.5 -47.5t36.5 -14.5q15 0 53 9l20 -17l-24 -143q-65 -43 -150 -51q-125 12 -164 153h-18q-118 -112 -242 -149q-155 0 -236 70.5t-81 203.5l6 242zM225 1262q0 63 36 100t99 37 q60 0 92.5 -33.5t32.5 -93.5q0 -65 -36 -102t-99 -37q-60 0 -92.5 33.5t-32.5 95.5zM582 1262q0 63 36 100t99 37q60 0 92.5 -33.5t32.5 -93.5q0 -65 -36 -102t-99 -37q-60 0 -92.5 33.5t-32.5 95.5z" />
<glyph unicode="&#xfe;" horiz-adv-x="1069" d="M133 -379l12 772l-12 1024l270 21l-8 -621h13q109 103 229 148q179 0 275 -121.5t96 -339.5q0 -252 -125 -388t-346 -136q-71 0 -142 18l6 -377h-268zM389 424l4 -229q75 -37 142 -37q105 0 162.5 75.5t56.5 235.5q-2 134 -48 205t-135 71q-83 0 -178 -88z" />
<glyph unicode="&#xff;" horiz-adv-x="915" d="M-41 -227l10 28q127 22 217 69t162 130l-348 946l262 12l31 -151l168 -531h18l166 506l33 170h237l-309 -886q-68 -194 -181.5 -297.5t-322.5 -161.5l-20 2q-72 66 -123 164zM162 1262q0 63 36 100t99 37q60 0 92.5 -33.5t32.5 -93.5q0 -65 -36 -102t-99 -37 q-60 0 -92.5 33.5t-32.5 95.5zM518 1262q0 63 36 100t99 37q60 0 92.5 -33.5t32.5 -93.5q0 -65 -36 -102t-99 -37q-60 0 -92.5 33.5t-32.5 95.5z" />
<glyph unicode="&#x152;" horiz-adv-x="1779" d="M57 645q0 331 175 514.5t489 183.5q75 0 198.5 -12t178.5 -12h633l16 -23l-21 -206l-307 10h-248l-2 -320l220 -4l223 6l16 -20l-20 -207l-238 6l-207 -2v-145l2 -193l230 -4l329 12l17 -22l-19 -207h-624q-65 2 -206.5 -11.5t-211.5 -13.5q-296 0 -459.5 176t-163.5 494 zM346 666q0 -249 84.5 -363.5t271.5 -114.5q122 0 168 27q42 20 39 88l-8 698q-3 71 -27 89q-44 28 -176 28q-184 0 -268 -108t-84 -344z" />
<glyph unicode="&#x153;" horiz-adv-x="1576" d="M53 463q0 244 117.5 375t331.5 131q210 0 313 -148q114 148 328 148q177 0 272.5 -99t95.5 -276q0 -74 -8 -113l-39 -39l-549 -2q15 -258 261 -258q132 0 274 74l25 -14l-39 -201q-142 -61 -287 -61q-227 0 -342 155q-109 -155 -330 -155q-203 0 -313.5 124.5 t-110.5 358.5zM315 510q0 -188 45.5 -268t147.5 -80q98 0 142 64t44 212q0 186 -45.5 267t-146.5 81q-98 0 -142.5 -65t-44.5 -211zM922 588l350 10l4 27q0 83 -37.5 124.5t-105.5 41.5q-84 0 -138 -52t-73 -151z" />
<glyph unicode="&#x178;" horiz-adv-x="1142" d="M8 1319h293l31 -92l223 -502h18l250 494l37 100h287l-461 -870l-4 -82l12 -367h-278l16 367l-2 73zM260 1628q0 63 36 100t99 37q60 0 92.5 -33.5t32.5 -93.5q0 -65 -36 -102t-99 -37q-60 0 -92.5 33.5t-32.5 95.5zM616 1628q0 63 36.5 100t99.5 37q60 0 92.5 -33.5 t32.5 -93.5q0 -64 -36.5 -101.5t-99.5 -37.5q-60 0 -92.5 33.5t-32.5 95.5z" />
<glyph unicode="&#x2c6;" horiz-adv-x="796" d="M80 1182q149 136 289 288h57q131 -145 289 -288l-70 -105h-27q-157 127 -221 189q-64 -62 -221 -189h-29z" />
<glyph unicode="&#x2dc;" horiz-adv-x="796" d="M37 1188v22l145 183l25 10q48 -6 169 -39t146 -33q9 0 18 2.5t18.5 9t16.5 12t18.5 17.5t18 19t20 22.5t19.5 22.5h25l80 -80v-23l-144 -182l-26 -10q-46 6 -167.5 38.5t-148.5 32.5q-12 0 -23.5 -5t-26 -17.5t-22.5 -21t-27.5 -30.5t-27.5 -30h-24z" />
<glyph unicode="&#x2000;" horiz-adv-x="924" />
<glyph unicode="&#x2001;" horiz-adv-x="1849" />
<glyph unicode="&#x2002;" horiz-adv-x="924" />
<glyph unicode="&#x2003;" horiz-adv-x="1849" />
<glyph unicode="&#x2004;" horiz-adv-x="616" />
<glyph unicode="&#x2005;" horiz-adv-x="462" />
<glyph unicode="&#x2006;" horiz-adv-x="308" />
<glyph unicode="&#x2007;" horiz-adv-x="308" />
<glyph unicode="&#x2008;" horiz-adv-x="231" />
<glyph unicode="&#x2009;" horiz-adv-x="369" />
<glyph unicode="&#x200a;" horiz-adv-x="102" />
<glyph unicode="&#x2010;" horiz-adv-x="622" d="M55 410v170l488 73l22 -22v-168l-487 -76z" />
<glyph unicode="&#x2011;" horiz-adv-x="622" d="M55 410v170l488 73l22 -22v-168l-487 -76z" />
<glyph unicode="&#x2012;" horiz-adv-x="622" d="M55 410v170l488 73l22 -22v-168l-487 -76z" />
<glyph unicode="&#x2013;" horiz-adv-x="954" d="M-31 455l15 166h983l18 -21l-12 -164h-985z" />
<glyph unicode="&#x2014;" horiz-adv-x="1820" d="M-35 455l12 166h1860l18 -21l-12 -164h-1861z" />
<glyph unicode="&#x2018;" horiz-adv-x="423" d="M70 995q0 157 188 336l94 -63l4 -19q-84 -90 -84 -176q0 -95 84 -143v-23q-81 -65 -172 -104q-114 58 -114 192z" />
<glyph unicode="&#x2019;" horiz-adv-x="423" d="M72 885q82 91 82 174q0 49 -19 83.5t-63 61.5v23q80 61 170 104q116 -62 116 -192q0 -157 -188 -336l-94 61z" />
<glyph unicode="&#x201a;" horiz-adv-x="468" d="M37 -162q115 95 115 201q0 66 -66 123v22q93 56 197 86q92 -74 92 -176q0 -178 -248 -354l-88 78z" />
<glyph unicode="&#x201c;" horiz-adv-x="751" d="M61 995q0 156 189 336l94 -61l4 -21q-82 -91 -82 -174q0 -49 19 -83.5t63 -61.5v-23q-80 -61 -170 -104q-117 63 -117 192zM401 995q0 156 189 336l94 -61l4 -21q-82 -91 -82 -174q0 -49 19 -83.5t63 -61.5v-23q-80 -61 -170 -104q-117 63 -117 192z" />
<glyph unicode="&#x201d;" horiz-adv-x="747" d="M68 885q84 90 84 174q0 94 -84 145v23q82 62 172 104q60 -32 87 -78t27 -114q0 -160 -188 -336l-94 61zM393 885q84 90 84 174q0 49 -19 83.5t-63 61.5v23q72 58 170 104q117 -63 117 -192q0 -157 -188 -336l-97 61z" />
<glyph unicode="&#x201e;" horiz-adv-x="806" d="M37 -162q115 95 115 201q0 66 -66 123v22q93 56 197 86q92 -74 92 -176q0 -178 -248 -354l-88 78zM375 -162q114 94 114 201q0 67 -65 123v22q93 56 197 86q92 -74 92 -176q0 -178 -248 -354l-88 78z" />
<glyph unicode="&#x2022;" horiz-adv-x="567" d="M104 496q0 86 50 136t135 50q82 0 126 -45t44 -127q0 -86 -50 -137t-133 -51t-127.5 45.5t-44.5 128.5z" />
<glyph unicode="&#x2026;" horiz-adv-x="1292" d="M82 127q0 68 40 108.5t107 40.5q65 0 101.5 -36.5t36.5 -102.5q0 -69 -40 -110t-108 -41q-66 0 -101.5 36.5t-35.5 104.5zM494 127q0 68 40 108.5t109 40.5q64 0 99.5 -36.5t35.5 -102.5q0 -69 -40 -110t-107 -41q-66 0 -101.5 36.5t-35.5 104.5zM905 127 q0 68 39.5 108.5t108.5 40.5q65 0 101 -36.5t36 -102.5q0 -69 -40 -110t-108 -41q-66 0 -101.5 36.5t-35.5 104.5z" />
<glyph unicode="&#x202f;" horiz-adv-x="369" />
<glyph unicode="&#x2039;" horiz-adv-x="499" d="M45 440v43l279 367l129 -70l4 -26l-213 -287l213 -287l-4 -26l-129 -70z" />
<glyph unicode="&#x203a;" horiz-adv-x="503" d="M51 182l213 289l-213 287l4 26l129 70l279 -356v-45l-279 -365l-129 68z" />
<glyph unicode="&#x205f;" horiz-adv-x="462" />
<glyph unicode="&#x20ac;" horiz-adv-x="956" d="M12 344l8 123h705l12 -14l-10 -123h-287q55 -137 215 -137q52 0 115 14.5t111 38.5l22 -13l-20 -200q-107 -47 -242 -47q-407 0 -479 344h-142zM12 569l8 121h146q45 173 171.5 266t321.5 93q135 0 267 -56l-43 -202l-21 -11q-96 60 -213 60q-168 0 -215 -150h291l12 -12 l-10 -125h-707z" />
<glyph unicode="&#x2122;" horiz-adv-x="1208" d="M49 1217l8 98h385l7 -10l-7 -99l-102 4h-25l-4 -225l6 -156h-135l6 144l-2 237h-24l-105 -4zM514 829l53 486h160l18 -70l64 -190h8l70 186l20 74h158l43 -486h-121l-6 146l-14 139h-9l-100 -240h-106l-88 240h-9l-14 -125l-10 -160h-117z" />
<glyph unicode="&#x25fc;" horiz-adv-x="962" d="M0 0v963h963v-963h-963z" />
</font>
</defs>
</svg>
